Skip to main content

Cracker Live at House Of Blues on 2011-12-31

by Cracker



01. // Seven Days (late start)
02. Friends
03. Eurotrash Girl
04. Lonesome Johnny Blues
05. Happy Birthday To Me
06. Teen Angst
07. Don't Fuck Me Up (With Peace & Love)
08. Loser
09. Gimme One More Chance
10. Wedding Day
11. Sweet Thistle Pie
12. The Man In Me
13. Get Off This
14. Low


Collection Cracker
Band/Artist Cracker
Venue House Of Blues
Location Chicago, IL USA

Source AKG C568EB Hybrid Shotguns @ 48 volts > Monster Studio Grade XLR > Zoom H4: 48khz / 24 bit
Lineage Mixed via Audacity 1.3 BETA > FLAC: 48/24: 8x
Taped by Barry Shoop
Transferred by Barry Shoop


Notes

with Camper Van Beethoven & Big Head Todd & The Monsters

recorded by Barry Shoop

BHTM set is here: http://archive.org/details/BHTM2011-12-31

CVB set is here: http://archive.org/details/CVB2011-12-31


AKG C568EB Hybrid Shotguns @ 48 volts > Monster Studio Grade XLR > Zoom H4: 48khz / 24 bit: Mixed via Audacity 1.3 BETA > FLAC: 48/24: 8x

files titled and tagged by morst
***24-bit /48kHz high-resolution recording, NOT for direct CD burning without conversion***

SHNTOOL LEN:
length expanded size cdr WAVE problems fmt ratio filename
3:51.000 66528044 B cxx -- ---xx flac 0.6800 Cracker2011-12-31t01.flac
4:49.000 83232044 B cxx -- ---xx flac 0.6270 Cracker2011-12-31t02.flac
9:07.000 157536044 B cxx -- ---xx flac 0.6492 Cracker2011-12-31t03.flac
2:56.000 50688044 B cxx -- ---xx flac 0.6495 Cracker2011-12-31t04.flac
3:39.000 63072044 B cxx -- ---xx flac 0.6732 Cracker2011-12-31t05.flac
4:13.000 72864044 B cxx -- ---xx flac 0.7104 Cracker2011-12-31t06.flac
3:10.000 54720044 B cxx -- ---xx flac 0.7058 Cracker2011-12-31t07.flac
7:34.000 130752044 B cxx -- ---xx flac 0.6254 Cracker2011-12-31t08.flac
4:19.000 74592044 B cxx -- ---xx flac 0.6816 Cracker2011-12-31t09.flac
3:50.000 66240044 B cxx -- ---xx flac 0.6398 Cracker2011-12-31t10.flac
5:10.000 89280044 B cxx -- ---xx flac 0.6649 Cracker2011-12-31t11.flac
3:59.000 68832044 B cxx -- ---xx flac 0.6607 Cracker2011-12-31t12.flac
3:57.000 68256044 B cxx -- ---xx flac 0.6796 Cracker2011-12-31t13.flac
5:34.000 96192044 B cxx -- ---xx flac 0.6822 Cracker2011-12-31t14.flac
66:08.000 1142784616 B 0.6627 (14 files)

Reviews

There are no reviews yet. Be the first one to write a review.
PEOPLE ALSO FOUND
Cracker
by Cracker
171
0
0
Source: FOB DFC DPA(B&K)4011s->V2->Luminous Synchestra Signature XLRs->AD2K@ 24/48->722
Cracker
by Cracker
1,234
0
1
( 1 reviews )
Source: Multichannel SBD+AUD
Cracker
by Cracker
150
0
0
Source: Sony ECM Mic -> Sony HI-MD -> Sonic Stage -> wav
Cracker
by Cracker
400
0
1
( 1 reviews )
Source: Neumann KM140's > Shure FP24 > Sony PCM-M10 > WAV @24/48
Cracker
by Cracker
335
0
0
Source: SBD > Sony PCM-M10 > WAV @24/48
Cracker
by Cracker
207
0
0
Source: internal Mic > Panasonic RX-SR29 Tape Deck > (2) Maxell XLII 90
Cracker
318
0
0
Source: Neumann KM140's > Sonosax SX-M2 > Sony PCM-M10 > WAVs @48kHz/24bit + Soundcraft 800B SBD > Edirol R44 > WAVs @48kHz/24bit
Cracker
by Cracker
187
0
0
Source: SBD + Audience 4-channel post-production matrix mix
Cracker
by Cracker
77
0
0
Source: audience DAT
Cracker
by Cracker
1,206
0
1
( 1 reviews )
Source: FM > cass > CD > FLAC